Hyper Video Converter - converta seus arquivos com qualidade

Publicado por Juliao Junior em 13/03/2010

[ Hits: 10.921 ]

 


Hyper Video Converter - converta seus arquivos com qualidade



O Hyper Video Converter é uma GUI para várias ferramentas de vídeo, do tipo conversão e edição, como ffmpeg, ffmpeg2theora e mencoder.

Algumas características do programa são:
  • Conversão entre vários formatos;
  • Conversão de vários arquivos de uma única vez;
  • Salva 'perfis' para facilitar tarefas rotineiras;
  • Se não sabe nada sobre conversão, ele já vem com diversas opções pré-configuradas;
  • A GUI gera o comando para o terminal, e assim é possível conferir a ação antes da execução.

Requisitos:
  • qt4 (libqt4core, libqt4gui)
  • ffmpeg
  • ffmpeg2theora
  • mplayer/mencoder

Linux: Hyper Video Converter - converta seus arquivos com qualidade
Instalação:

(Genérico, para todas as distros):

1) Baixe o arquivo

Para todas as distros, tome o arquivo hypervc-0.4.1-qt4-generic.tar.bz2.

Para distribuições 'by Debian', baixe o arquivo hypervc-0.4.1-qt4-deb.tar.bz2. Para SUSE, baixe o arquivo hypervc-0.4.1-qt4-suse.tar.bz2.

2) Descompacte o arquivo.

3) Execute o arquivo 'installer.sh' como root, usando:

# ./installer.sh

4) Copie o arquivo .hyperconf para seu diretório HOME.

Outras dicas deste autor

Repositório pessoal do Debian Linux

Game - Second Life para o Tux

Configurando o fax-modem no Kurumin

Recuperando downloads de ISOs "quebradas" ou parciais

Converter documentos PDF para imagems JPEG

Leitura recomendada

IRPF 2019 no Gentoo

Instalando o KDE 3.5.2 no Kurumin

Instalando o jSMS no Ubuntu 7.04

Lista de exercícios de programação

Compilando e instalando a última versão do navegador Midori - 0.2.6 no (X)Ubuntu 10.04 LTS

  

Comentários
[1] Comentário enviado por removido em 13/03/2010 - 11:44h

Excelente dica,preciso de um programa desses para converter minhas vídeo aulas.

[2] Comentário enviado por gudrade em 14/03/2010 - 01:28h

Ótima dica e ótima GUI.
Aqui funcionou durante algum tempo, mas agora está com erros. Instalei pacotes -unstripped segundo dicas, p.e.: libavcodec, mas o problema persiste:

FFmpeg version git-91be88c, Copyright (c) 2000-2009 Fabrice Bellard, et al.
configuration: --enable-gpl --enable-nonfree --enable-shared --enable-pthreads --enable-libx264 --enable-libfaac --enable-libtheora
libavutil 50. 3. 0 / 50. 3. 0
libavcodec 52.32. 0 / 52.20. 0
libavformat 52.36. 0 / 52.31. 0
libavdevice 52. 2. 0 / 52. 1. 0
libswscale 0. 7. 1 / 0. 7. 1
built on Jul 24 2009 21:22:03, gcc: 4.3.3
[mov,mp4,m4a,3gp,3g2,mj2 @ 0x9c94ac0]ISO: File Type Major Brand: mp42
st:0 removing common factor 4 from timebase
st:1 removing common factor 1000 from timebase

Seems stream 1 codec frame rate differs from container frame rate: 60.00 (60/1) -> 30.00 (30/1)
Input #0, mov,mp4,m4a,3gp,3g2,mj2, from '/home/gustavo/Vídeos/video.mp4':
Duration: 00:03:50.29, start: 0.000000, bitrate: 611 kb/s
Stream #0.0(und), 256/11025: Audio: aac, 44100 Hz, stereo, s16
Stream #0.1(und), 1/30: Video: h264, yuv420p, 480x360, 1/60, 30 tbr, 30 tbn, 60 tbc
ffmpeg: symbol lookup error: ffmpeg: undefined symbol: avcodec_channel_layout_num_channels

[3] Comentário enviado por erich8 em 12/05/2010 - 21:47h

Este programa roda em plataforma 64 bits?
Baixei o pacote hypervc-0.4.1-qt4-rpm.tar.bz2 bos estou usando Fedora 11 mas o meu Linux é 64 bits.
Tendei instalar como Root usando “rpm -i hypervc-0.4.1-linux-2.6-intel.rpm” e retornou este erro.

erro: Dependências não satisfeitas:

ffmpeg2theora é requerido por hypervc-0.4.1-0.i386

libqt4-core é requerido por hypervc-0.4.1-0.i386

libqt4-gui é requerido por hypervc-0.4.1-0.i386

mplayer é requerido por hypervc-0.4.1-0.i386

[root@eri hypervcrpm-qt4]#


mas estes pacotes são para 32 bits.

[4] Comentário enviado por erich8 em 13/05/2010 - 20:13h

consegui instalar o mplayer e o ffmpeg2theora mas não estou encontrando os pacotes libqt4 com o comando yum list no terminal.
só falta estes 2.

[5] Comentário enviado por removido em 11/05/2011 - 18:44h

Novos passos para a instalação desse programa disponíveis neste tópico:

http://www.vivaolinux.com.br/topico/Iniciantes-no-Linux/Hyper-Video-Converter-1/



Contribuir com comentário




Patrocínio

Site hospedado pelo provedor RedeHost.
Linux banner
Linux banner
Linux banner

Destaques

Artigos

Dicas

Tópicos

Top 10 do mês

Scripts