nao consigo assistir filme em MKV no manjaro ultima versao [RESOLVIDO]

1. nao consigo assistir filme em MKV no manjaro ultima versao [RESOLVIDO]

carlos augusto dinzi filho
ysneshy

(usa Arch Linux)

Enviado em 03/05/2021 - 21:54h

nao consigo assistir filme em MKV no manjaro ultima versao boa noite . instalei todos codecs inclusive faap aac etc e nada " NADA faz filmes em mkv sair som . nao sie o que se passa sai so som da intruducao as vozes dos personagens nao sai :(


  


2. MELHOR RESPOSTA

Eric
Grinder

(usa Slackware)

Enviado em 05/05/2021 - 13:54h

Seu problema estava nos dispositivos de saída então, mas que bom que deu certo. Até ia te falar que o AC3 Audio Codec vc precisaria instalar o a52dec ai no Manjaro, mas não era o caso então.

existe algum comando pra deixa essa saida hdmi marcada pra sempre e nunca ser trocada pela inicializacao do manjaro 20? meu cerebro acaba nesta segunda foto '-' mas naos ei escolher so uma placa de som ou card pra funciona em toda re-iniciacao

Infelizmente não sei, mas com certeza tem jeito sim, no linux nada é impossível. Eu começaria procurando por algumas configurações do pulseaudio ai.

- - - - -
www.gitlab.com/grinder
www.github.com/ericfernandesferreira
www.youtube.com/candelabrus1

3. Re: nao consigo assistir filme em MKV no manjaro ultima versao

Eric
Grinder

(usa Slackware)

Enviado em 04/05/2021 - 14:02h

Teria como me passar o link desse .mkv? Posso tentar dar uma analisada por aqui, caso não, precisaria que você me passasse um pouquinho mais de informações do arquivo .mkv
MediaInfo é uma excelente ferramenta onde você consegue todas as informações de qualquer arquivo de áudio ou vídeo, ele possui modo gui e cli, se vc puder instalar ele e me passar a saída do comando:
mediainfo nomedoarquivo.mkv 


Agora caso você não queria fazer nada disso, vou chutar alto aqui aonde está o problema... acredito que possa ser relacionado ao famoso e indolatrado nonfree diferentes distros adotam diferentes medidas em relação a pacotes nonfree, não sei se é o caso do Manjaro, como eu vi algo com aac ali e senão me engano aac é um codec proprietário então por isso estou chutando isso, mas também pode ser que apenas esteja faltando algum pacote a ser instalado, essas distros tipo manjaro costumam vir com o ffmpeg completo, porém o que vai fazendo funcionar as funções do ffmpeg é instalando os pacotes relacionados.

- - - - -
www.gitlab.com/grinder
www.github.com/ericfernandesferreira
www.youtube.com/candelabrus1


4. Re: nao consigo assistir filme em MKV no manjaro ultima versao

carlos augusto dinzi filho
ysneshy

(usa Arch Linux)

Enviado em 04/05/2021 - 21:27h

Grinder escreveu:

Teria como me passar o link desse .mkv? Posso tentar dar uma analisada por aqui, caso não, precisaria que você me passasse um pouquinho mais de informações do arquivo .mkv
MediaInfo é uma excelente ferramenta onde você consegue todas as informações de qualquer arquivo de áudio ou vídeo, ele possui modo gui e cli, se vc puder instalar ele e me passar a saída do comando:
mediainfo nomedoarquivo.mkv 


Agora caso você não queria fazer nada disso, vou chutar alto aqui aonde está o problema... acredito que possa ser relacionado ao famoso e indolatrado nonfree diferentes distros adotam diferentes medidas em relação a pacotes nonfree, não sei se é o caso do Manjaro, como eu vi algo com aac ali e senão me engano aac é um codec proprietário então por isso estou chutando isso, mas também pode ser que apenas esteja faltando algum pacote a ser instalado, essas distros tipo manjaro costumam vir com o ffmpeg completo, porém o que vai fazendo funcionar as funções do ffmpeg é instalando os pacotes relacionados.

- - - - -
www.gitlab.com/grinder
www.github.com/ericfernandesferreira
www.youtube.com/candelabrus1



muito obrigado por responder : eu to mechendo em dispositivo de saida em configuracoes do manjaro gnome la tem "hdmi port display tu116 hight definition audio controle " e outro la q se chama "audio output s/pdif "que quando ativo q toda vez liga linux fica sem som e sempre tenho que mudar pro hdmi pra volta som --' so que no hdmi display tu 116 ativando tem mais 3 opcoes "surround 7.1 5.1 e e saida digital estero "que quando ligado algums mkvs funcionam normal so que meu manjaro 20 sempre que ligado nao fica saida hdmi marcada --' isso me infurece fica so output interno

mas acho que sao todos mkv's com problema por que testei 6 filmes diferentes e todos que etsao mkv dao mesmo problema so consigoa ssisti quando converto por esse comando ffmpeg -i /home/ysneshy/zumbi2.mkv -c:v mpeg4 -q:v 3 -tag:v xvid -c:a libmp3lame -q:a 4 /home/ysneshy/zumbilandia3.avi ou uso "handbrake" so venho no viva linux quando negocio ta bem feio. entao resumindo acho que e alguma coisa com codec ou sei la o que :( uso hdmi pra televisao mas todas coisas funcionan normal ate introducao de iniciacao do mkv mas quando chega nas falas dos personagens parece que fica mudo ou extremamente baixo sei

mediainfo Mad\ Max\ Estrada\ Da\ Furia\ \(4k\)\ \(TORRENTUS\ FILMES\).mkv
General
Unique ID : 179095604916712897582750952901438765010 (0x86BC8F1040519C0FE5AC4ED9E94677D2)
Complete name : Mad Max Estrada Da Furia (4k) (TORRENTUS FILMES).mkv
Format : Matroska
Format version : Version 2
File size : 4.37 GiB
Duration : 2 h 0 min
Overall bit rate : 5 191 kb/s
Movie name : EVO
Encoded date : UTC 2015-08-14 00:25:18
Writing application : mkvmerge v5.6.0 ('Kenya Kane') built on May 28 2012 06:47:39
Writing library : libebml v1.2.2 + libmatroska v1.3.0

Video
ID : 1
Format : AVC
Format/Info : Advanced Video Codec
Format profile : [email protected]
Format settings : CABAC / 4 Ref Frames
Format settings, CABAC : Yes
Format settings, Reference frames : 4 frames
Muxing mode : Header stripping
Codec ID : V_MPEG4/ISO/AVC
Duration : 2 h 0 min
Bit rate : 4 256 kb/s
Nominal bit rate : 4 514 kb/s
Width : 1 920 pixels
Height : 800 pixels
Display aspect ratio : 2.40:1
Frame rate mode : Constant
Frame rate : 23.976 (24000/1001) FPS
Color space : YUV
Chroma subsampling : 4:2:0
Bit depth : 8 bits
Scan type : Progressive
Bits/(Pixel*Frame) : 0.116
Stream size : 3.58 GiB (82%)
Writing library : x264 core 142 r2479 dd79a61
Encoding settings : cabac=1 / ref=1 / deblock=1:0:0 / analyse=0x3:0x113 / me=hex / subme=2 / psy=1 / psy_rd=1.00:0.00 / mixed_ref=0 / me_range=16 / chroma_me=1 / trellis=0 / 8x8dct=1 / cqm=0 / deadzone=21,11 / fast_pskip=1 / chroma_qp_offset=0 / threads=12 / lookahead_threads=4 / sliced_threads=0 / nr=0 / decimate=1 / interlaced=0 / bluray_compat=0 / constrained_intra=0 / bframes=3 / b_pyramid=2 / b_adapt=1 / b_bias=0 / direct=1 / weightb=1 / open_gop=0 / weightp=1 / keyint=240 / keyint_min=24 / scenecut=40 / intra_refresh=0 / rc_lookahead=10 / rc=abr / mbtree=1 / bitrate=4514 / ratetol=1.0 / qcomp=0.60 / qpmin=0 / qpmax=69 / qpstep=4 / vbv_maxrate=62500 / vbv_bufsize=78125 / nal_hrd=none / filler=0 / ip_ratio=1.40 / aq=1:1.00
Default : Yes
Forced : No
Color range : Limited
Color primaries : BT.709
Transfer characteristics : BT.709
Matrix coefficients : BT.709

Audio #1
ID : 2
Format : AC-3
Format/Info : Audio Coding 3
Commercial name : Dolby Digital
Muxing mode : Header stripping
Codec ID : A_AC3
Duration : 2 h 0 min
Bit rate mode : Constant
Bit rate : 384 kb/s
Channel(s) : 6 channels
Channel layout : L R C LFE Ls Rs
Sampling rate : 48.0 kHz
Frame rate : 31.250 FPS (1536 SPF)
Compression mode : Lossy
Delay relative to video : -83 ms
Stream size : 331 MiB (7%)
Language : Portuguese
Service kind : Complete Main
Default : Yes
Forced : No

Audio #2
ID : 3
Format : AC-3
Format/Info : Audio Coding 3
Commercial name : Dolby Digital
Muxing mode : Header stripping
Codec ID : A_AC3
Duration : 2 h 0 min
Bit rate mode : Constant
Bit rate : 448 kb/s
Channel(s) : 6 channels
Channel layout : L R C LFE Ls Rs
Sampling rate : 48.0 kHz
Frame rate : 31.250 FPS (1536 SPF)
Compression mode : Lossy
Delay relative to video : -5 ms
Stream size : 386 MiB (9%)
Language : English
Service kind : Complete Main
Default : No
Forced : No

Menu
00:00:00.000 : :00:00:00.000
00:10:42.642 : :00:10:42.475
00:19:06.645 : :00:19:06.437
00:30:12.394 : :00:30:12.310
00:42:55.781 : :00:42:55.615
00:49:33.554 : :00:49:33.345
00:59:55.341 : :00:59:55.175
01:13:02.712 : :01:13:02.545
01:22:09.132 : :01:22:08.924
01:30:02.939 : :01:30:02.731
01:40:40.033 : :01:40:39.867
01:49:12.712 : :01:49:12.546
01:53:06.363 : :01:53:06.279



OBS: Na imagem abaixo ta minha janela de saida de audio q vem de uma placa de video nvidia gtx 1660 oc eu acho por q pucho hdmi de la pra tv e uso alto falante da lg tv nestas configuracoes tudo funciona so q quando iniciio manjaro,nem sempre inicia no hdmi.sempre tenho que ir neste painel e ficar trocando a saida de output interno para esta hdmi 98 % dos mkv's estao funcionando nesta configuracao feita agora --'

existe algum comando pra deixa essa saida hdmi marcada pra sempre e nunca ser trocada pela inicializacao do manjaro 20? meu cerebro acaba nesta segunda foto '-' mas naos ei escolher so uma placa de som ou card pra funciona em toda re-iniciacao