WinFF - alternativa ao Convertit (excelente conversor de vídeo)

Publicado por Giovanildo Teixeira em 19/12/2008

[ Hits: 10.732 ]

 


WinFF - alternativa ao Convertit (excelente conversor de vídeo)



O convertit é uma ferramenta excelente para conversão de vídeo, mas não funcionou no meu Linux Ubuntu Intrepid Ibex, pesquisei um pouco e encontrei o WinFF, se trata de uma interface amigável para o ffmpeg.

Instalação:

Baixa a chave de autenticação:

wget --quiet --output-document=- "http://winff.org/ubuntu/AAFE086A.gpg" | sudo apt-key add -

Incluindo repositório do programa:

echo "deb http://winff.org/ubuntu intrepid universe" | sudo tee /etc/apt/sources.list.d/winff.list

(se for Hardy Heron mude de "intrepid" para "hardy")

Atualizando e instalando o winff:

sudo apt-get update && sudo apt-get install winff

Finalizando:

sudo apt-get install libavcodec-unstripped-51

Pronto, está instalado (procure em aplicativos/multimedia).

Em caso de problemas:

cat /etc/apt/sources.list.d/winff.list
$ sudo apt-get update && sudo apt-get install winff


Fonte: (em inglês)
http://code.google.com/p/winff/wiki/UbuntuInstallation

Outras dicas deste autor

PHP5 + PDFliblite + Ubuntu 9.04

Lineduc - Linux Educacional Duque de Caxias

PostgreSQL 8.2 no Ubuntu 8.10

ConvertIT - Excelente conversor de vídeo para Ubuntu Linux

Atualizando e instalando programas offline no Ubuntu 10.04

Leitura recomendada

Atualizando o Java Runtime Environment (JRE) da Oracle no Ubuntu

Instalando a calculadora gnome-calculator no Slackware 14.2

Enemy Territory no seu Ubuntu!!!

Dicionário de significados Micha Elvis

Instalando aMSN 0.98 (svn) no Ubuntu 7.10

  

Comentários
[1] Comentário enviado por bilufe em 11/01/2009 - 00:58h

Instalou tudo corretamente, mas o programa não funcionou. Quando rodo é exiba a mensagem "Falha de segmentação".

[2] Comentário enviado por hellboy_sp em 29/05/2009 - 14:54h

Boa tarde Giovanildo,

Estou com o seguinte erro na minha conversão:

FFmpeg version 0.5-svn17737+3:0.svn20090303-1ubuntu6, Copyright (c) 2000-2009 Fabrice Bellard, et al.
configuration: --enable-gpl --enable-postproc --enable-swscale --enable-x11grab --extra-version=svn17737+3:0.svn20090303-1ubuntu6 --prefix=/usr --enable-avfilter --enable-avfilter-lavf --enable-libgsm --enable-libschroedinger --enable-libspeex --enable-libtheora --enable-libvorbis --enable-pthreads --disable-stripping --disable-vhook --enable-libdc1394 --disable-armv5te --disable-armv6 --disable-armv6t2 --disable-armvfp --disable-neon --disable-altivec --disable-vis --enable-shared --disable-static
libavutil 49.15. 0 / 49.15. 0
libavcodec 52.20. 0 / 52.20. 0
libavformat 52.31. 0 / 52.31. 0
libavdevice 52. 1. 0 / 52. 1. 0
libavfilter 0. 4. 0 / 0. 4. 0
libswscale 0. 7. 1 / 0. 7. 1
libpostproc 51. 2. 0 / 51. 2. 0
built on Apr 10 2009 23:18:41, gcc: 4.3.3
Input #0, mpeg, from '/home/hellboy/Desktop/download/Downloads/xxx/0.mpg':
Duration: 00:00:11.41, start: 0.515344, bitrate: 1183 kb/s
Stream #0.0[0x1e0]: Video: mpeg1video, yuv420p, 480x360 [PAR 1:1 DAR 4:3], 1000 kb/s, 29.97 tbr, 90k tbn, 29.97 tbc
Stream #0.1[0x1c0]: Audio: mp2, 48000 Hz, stereo, s16, 128 kb/s
Unknown encoder 'libamr_nb'
Pressione Enter para Continuar


Já instalei amrwb, amrnb a libamrnb3 e a libamrwb3 e continua o problema tem alguma idéia?

parece que a lib mudou de nome... será que colocar um link simbólico pode funcionar?? ou editar algum arquivo do WINFF? mais qual..

abração!




[3] Comentário enviado por rmoitinho em 23/09/2009 - 14:00h

Cara, gostei. Facil de instalar e converter tambem. Muito pratico, valeu pela dica.
Gosto de facilidades no linux.

[4] Comentário enviado por helio2007 em 24/11/2009 - 18:16h

AMIGOS, PRA QUEM UTILIZA O PODEROSO E SUPER AMIGO UBUNTU KARMIC (9.10) PODE ACHAR ESTE PROGRAMA SEM PROBLEMA ALGUM NO SYNAPTIC ... ABRAÇOS Á TODOS



Contribuir com comentário




Patrocínio

Site hospedado pelo provedor RedeHost.
Linux banner
Linux banner
Linux banner

Destaques

Artigos

Dicas

Tópicos

Top 10 do mês

Scripts