Programa para avaliar perda da qualidade apos converter um arquivo, existe no Linux

1. Programa para avaliar perda da qualidade apos converter um arquivo, existe no Linux

Perfil removido
removido

(usa Nenhuma)

Enviado em 06/03/2017 - 12:29h

Estou fazendo um script para converter arquivo mid em mp3.

O arquivo final tem perda da qualidade o som fica baixo do arquivo original (mid).

Instalação dos pacotes:

# sudo apt-get install -y timidity
# sudo apt-get install -y lame
# sudo apt-get install -y mediainfo


Arquivo baixado do site:
http://www.download-midi.com/search/keyword/Ghostbusters


Para chamar o arquivo mid:

timidity -ig 2.mid



Converter MID para MP3 via terminal

timidity -Ow -o - 2.mid | lame -b 128 - 2.mid.mp3 2> 2.mid.log


Arquivo 2.mid.log:

LAME 3.99.5 32bits (http://lame.sf.net)
CPU features: MMX (ASM used), SSE (ASM used), SSE2
Using polyphase lowpass filter, transition band: 16538 Hz - 17071 Hz
Encoding <stdin> to 2.mid.mp3
Encoding as 44.1 kHz j-stereo MPEG-1 Layer III (11x) 128 kbps qval=3





mediainfo 2.mid

General
Complete name : 2.mid
Format : MIDI
Format/Info : RIFF Musical Instrument Digital Interface
File size : 24.5 KiB

Audio
Format : MIDI
Format/Info : RIFF Musical Instrument Digital Interface





mediainfo 2.mid.mp3

General
Complete name : 2.mid.mp3
Format : MPEG Audio
File size : 1.16 MiB
Duration : 1mn 15s
Overall bit rate mode : Constant
Overall bit rate : 128 Kbps
Writing library : LAME3.99r

Audio
Format : MPEG Audio
Format version : Version 1
Format profile : Layer 3
Mode : Joint stereo
Mode extension : MS Stereo
Duration : 1mn 16s
Bit rate mode : Constant
Bit rate : 128 Kbps
Channel(s) : 2 channels
Sampling rate : 44.1 KHz
Compression mode : Lossy
Stream size : 1.16 MiB (100%)
Writing library : LAME3.99r
Encoding settings : -m j -V 4 -q 3 -lowpass 17 -b 128







Para os entusiastas da música em alta resolução, um arquivo MP3 — por mais que ele tenha um bitrate alto, isto é, seja menos comprimido — já foi comprimido demais e não tem a qualidade necessária para ser considerado bom.

O mais comum, no dia a dia, é que pessoas que gostam de som de qualidade usem os formatos FLAC e AIFF. Menos comum, mas também usados, são WAV e ALAC. Apesar dessas variações, a maior parte das bandas que lançam os seus materiais em alta definição acabam usando FLAC mesmo, que consegue preservar bem a qualidade original e pode ser reproduzido pela maior parte dos players.

Existe, no entanto, formatos que prometem ainda mais qualidade sonora do que estes, sendo considerados arquivos praticamente sem compressão alguma; são eles o DSD(DFF) e o DSD(DSF). O primeiro é o formato usado para criar as Masters dos SACDs — um equivalente de áudio para o Blu-ray —, já o segundo é uma versão dele, mas mais amigável para computadores.

Esses dois formatos de áudio são comercializados em sites especializados, como o Blue Coast Records e o Super Hirez, mas não chegaram a atingir um sucesso de público, já que poucos artistas lançam os seus trabalhos com essa qualidade. Lojas que vendem músicas em FLAC, AIFF, ALAC e WAV são bem mais comuns e possuem acervos muito mais variados.


Fonte:

https://www.tecmundo.com.br/audio/45429-o-que-sao-formatos-de-audio-de-alta-resolucao-.htm
http://ubuntuforum-br.org/index.php?topic=84353.0



  


2. Re: Programa para avaliar perda da qualidade apos converter um arquivo, existe no Linux

Perfil removido
removido

(usa Nenhuma)

Enviado em 06/03/2017 - 13:22h


Converti o mid em wav

timidity -Ow 2.mid 2.wav 2> 2.mid .log

Sem saída de erro no arquivo 2.mid .log

cat 2.mid.log



mediainfo 2.wav

General
Complete name : 2.wav
Format : Wave
File size : 12.8 MiB
Duration : 1mn 15s
Overall bit rate mode : Constant
Overall bit rate : 1 411 Kbps

Audio
Format : PCM
Format settings, Endianness : Little
Format settings, Sign : Signed
Codec ID : 1
Duration : 1mn 15s
Bit rate mode : Constant
Bit rate : 1 411.2 Kbps
Channel(s) : 2 channels
Sampling rate : 44.1 KHz
Bit depth : 16 bits
Stream size : 12.8 MiB (100%)

Existe algum programa que avalia o arquivo original e o final se tem perda da qualidade?







Patrocínio

Site hospedado pelo provedor RedeHost.
Linux banner
Linux banner

Destaques

Artigos

Dicas

Tópicos

Top 10 do mês

Scripts