WinFF não funciona no Ubuntu 12.04 - Veja como solucionar

Publicado por Perfil removido em 19/09/2012

[ Hits: 5.837 ]

 


WinFF não funciona no Ubuntu 12.04 - Veja como solucionar



Bem, é minha primeira vez aqui no Viva o Linux.

Hoje estou escrevendo para dar uma dica sobre o WinFF.

O caso é que o WinFF deixou de funcionar quando fiz a atualização do meu desktop para o Ubuntu 12.04 LTS. Mas é bem simples fazê-lo funcionar novamente.

Para isso, é só ir ao site:
E baixar um arquivo chamado presets-libavcodec em formato ".gz", na versão que você preferir.

Após isso, extraia o arquivo ".xml", copie-o para a pasta oculta /home/"usuário"/.winff/, e depois o renomeie para presets.xml.

Nesta mesma pasta, você encontra um arquivo de mesmo nome, faça um backup dele se quiser.

Caso queira definir o arquivo presets para todo o sistema, copie, como root, para /usr/share/winff/presets.xml, sendo que cada usuário deve remover seu arquivo presets.xml.

Obs.: Para quem não sabe, para poder ver arquivos ocultos no gerenciador de arquivos do Ubuntu, pressione as teclas Ctrl + H.

Obrigado a toda comunidade!

Outras dicas deste autor

Configuração do Squid via modo gráfico

[Esclarecimento] Multiseat não é Multiterminal

[Vídeo] Apresentação dos meus programas

Gravando imagem ISO com o Brasero (para iniciantes)

Verificando o nível de tinta de sua impressora com Inkblot

Leitura recomendada

Instalando Skype no Fedora 21

Instalando o Mercury no Mandriva One e superior

Elisa: Media Center para Linux

Instalando o Real Player 11 no Ubuntu Linux

GSCAN2PDF: escaneando direto em PDF

  

Comentários
[1] Comentário enviado por albfneto em 26/09/2012 - 17:46h

Ué, uma Dica tão recente e perfil removido?

[2] Comentário enviado por henbran em 15/03/2013 - 10:44h

PARABÊNS ... LEU ... PORÉM NA SAÍDA DURANTE A CONVERSÃO ... PARECE QUE O SISTEMA RECLAMA ALGUM ÍTEM
Uso o Debian 6 AMD64
*************************************************************************

Seems stream 0 codec frame rate differs from container frame rate: 2000.00 (2000/1) -> 6.00 (6/1)
Input #0, mov,mp4,m4a,3gp,3g2,mj2, from '/home/usuario/convertidos/video1.mp4':
Duration: 00:03:42.49, start: 0.000000, bitrate: 217 kb/s
Stream #0.0(und): Video: h264, yuv420p, 480x360, 6 tbr, 1k tbn, 2k tbc
Stream #0.1(und): Audio: aac, 44100 Hz, stereo, s16
/usr/bin/ffmpeg: unrecognized option '-vf'
FFmpeg version SVN-r0.5.10-4:0.5.10-1, Copyright (c) 2000-2009 Fabrice Bellard, et al.
configuration: --extra-version=4:0.5.10-1 --prefix=/usr --enable-avfilter --enable-avfilter-lavf --enable-vdpau --enable-bzlib --enable-libdirac --enable-libgsm --enable-libopenjpeg --enable-libschroedinger --enable-libspeex --enable-libtheora --enable-libvorbis --enable-pthreads --enable-zlib --disable-stripping --disable-vhook --enable-runtime-cpudetect --enable-gpl --enable-postproc --enable-swscale --enable-x11grab --enable-libfaad --enable-libdc1394 --enable-shared --disable-static
libavutil 49.15. 0 / 49.15. 0
libavcodec 52.20. 1 / 52.20. 1
libavformat 52.31. 0 / 52.31. 0
libavdevice 52. 1. 0 / 52. 1. 0
libavfilter 0. 4. 0 / 0. 4. 0
libswscale 0. 7. 1 / 0. 7. 1
libpostproc 51. 2. 0 / 51. 2. 0
built on Feb 16 2013 09:22:58, gcc: 4.4.5

Press Enter to Continue^[[1;2B



Contribuir com comentário




Patrocínio

Site hospedado pelo provedor RedeHost.
Linux banner
Linux banner
Linux banner

Destaques

Artigos

Dicas

Tópicos

Top 10 do mês

Scripts