Como extrair o audio do video com qualidade?

1. Como extrair o audio do video com qualidade?

Morpheus
Minions

(usa Nenhuma)

Enviado em 25/02/2021 - 11:39h


Opções:

1- Copiar o áudio original do vídeo e identificar a extensão.

2- Converter para MP3 com qualidade alta.
É comum encontrar arquivos MP3 com taxas de 256 kbps, 192 kbps, 128 kbps ou até menos.
Como extrair e converter com qualidade o que esta no vídeo (áudio)?

Programas:

lame
ffmpeg
mencoder

...

Olhando a saída do comando mediainfo, não identifiquei a taxa kbps do áudio do vídeo.



  


2. Re: Como extrair o audio do video com qualidade?

Ricardo Groetaers
ricardogroetaers

(usa Linux Mint)

Enviado em 26/02/2021 - 06:16h

Ffmpeg em linha de comando é muito complicado.
Eu uso Winff (interface gráfica para Ffmpeg), existe outras.
HandBrake tambem é bom.

Mp3 de Alta fidelidade, sugestão:
320 Kbits/seg - 48.000 Hz - 2 canais stereo
O arquivo fica um pouco grande (mas, menor que wav) mas o som é muito bom.
Não adianta converter para Mp3 Alta Fidelidade um som original de baixa qualidade.





3. Re: Como extrair o audio do video com qualidade?

Eric
Grinder

(usa Slackware)

Enviado em 26/02/2021 - 11:52h

Olá

ffmpeg -i nomedovideo.mp4 -vn nomequalquer.mp3 


- - - - -
www.gitlab.com/grinder
www.github.com/ericfernandesferreira
www.youtube.com/candelabrus1


4. Re: Como extrair o audio do video com qualidade?

Perfil removido
removido

(usa Nenhuma)

Enviado em 26/02/2021 - 14:14h


ricardogroetaers escreveu:

Ffmpeg em linha de comando é muito complicado.
Eu uso Winff (interface gráfica para Ffmpeg), existe outras.
HandBrake tambem é bom.

Mp3 de Alta fidelidade, sugestão:
320 Kbits/seg - 48.000 Hz - 2 canais stereo
O arquivo fica um pouco grande (mas, menor que wav) mas o som é muito bom.
Não adianta converter para Mp3 Alta Fidelidade um som original de baixa qualidade.




nada é complicado, só saber ler e interpretar os comandos, que fica fácil fácil.
eu uso a anos o ffmpeg em linha de comando e digo: esqueça as interfaces gráficas!
além de serem visualmente poluidoras por si só, quase nunca funcionam do jeito que a gente quer, fora que não se possibilita aprender coisa alguma com elas.
leia sempre o manual, e se procurar bem, vai achar vários sites com dicas sobre os comandos, isso, em qualquer aplicativo em CLI...
OU se ainda quiser firulas, use windows, que lá com certeza vai atender a quem AMA essas interfaces gráficas....


5. Re: Como extrair o audio do video com qualidade?

LinuxWalker
Delusion

(usa Debian)

Enviado em 26/02/2021 - 19:17h


Grinder escreveu:
ffmpeg -i nomedovideo.mp4 -vn nomequalquer.mp3 

- - - -
www.gitlab.com/grinder
www.github.com/ericfernandesferreira
www.youtube.com/candelabrus1


Thank you mr Grinder! vai ser muito útil esse comando pra mim.

Linux User # 624552


6. Re: Como extrair o audio do video com qualidade?

Morpheus
Minions

(usa Nenhuma)

Enviado em 26/02/2021 - 21:20h


Na opção -ab valork do ffmpeg se colocar um valor alto que o áudio do vídeo original esta como fica isso?

-ab valork > áudio do vídeo original

a) Fica no mesmo valor do áudio do vídeo original sem perda de qualidade
b) Aumenta o valor e altera o áudio final com perda de qualidade




7. Re: Como extrair o audio do video com qualidade?

Morpheus
Minions

(usa Nenhuma)

Enviado em 26/02/2021 - 21:30h




Metadata:
COMPATIBLE_BRANDS: iso6avc1mp41
MAJOR_BRAND : dash
MINOR_VERSION : 0
ENCODER : Lavf57.56.101
Duration: 00:02:52.10, start: -0.007000, bitrate: 345 kb/s
Stream #0:0: Video: h264 (Main), yuv420p(progressive), 320x240 [SAR 1:1 DAR 4:3], 30 fps, 30 tbr, 1k tbn, 60 tbc (default)
Metadata:
HANDLER_NAME : VideoHandler
DURATION : 00:02:52.066000000
Stream #0:1(eng): Audio: opus, 48000 Hz, mono, fltp (default)
Metadata:
DURATION : 00:02:52.101000000
[mp3 @ 0x193a0c0] Invalid audio stream. Exactly one MP3 audio stream is required.
Could not write header for output file #0 (incorrect codec parameters ?): Invalid argumentStream mapping:

Stream #0:1 -> #0:0 (copy)
Last message repeated 1 times




8. Re: Como extrair o audio do video com qualidade?

Ricardo Groetaers
ricardogroetaers

(usa Linux Mint)

Enviado em 27/02/2021 - 03:00h

cyrix escreveu:
... esqueça as interfaces gráficas!
... não se possibilita aprender coisa alguma com elas.
..... e se procurar bem, e se procurar bem, vai achar vários sites com dicas sobre os comandos, ....
OU se ainda quiser firulas, use windows, que lá com certeza vai atender a quem AMA essas interfaces gráficas....

Eu não posso e não devo esquecer as interfaces gráficas (GUI) e semi gráficas (CUI).
Elas existem para serem usadas, facilitar o usuário, poupar tempo, proporcionar soluções objetivas e produtividade.
E tempo, objetividade, produção e solução são dinheiro.

Não vislumbro nenhuma diferença, em termos de conhecimento e aprendizado, entre:
- clicar, com mouse ou com alguma tecla, numa opção de menu (disponível em bom português) e
- digitar, em um comando, um ou mais parâmetros, que por si só, na maioria das vezes, não refletem ou indicam absolutamente nada acerca de seu significado e daquilo que ele faz.
Só serve para complicar o que é simples ou para esnobar.
Aquele que projeta e desenvolve aquilo que roda por baixo do capô do menu ou do parâmetro do comando, é que efetivamente sabe das coisas e faz a coisa, de fato, funcionar.

Uso Linux, Windows, DOS e já usei OS2 e também Desktop (Ambiente de Trabalho) para DOS operando em janelas (frames) quando ainda não existia nem mouse nem Windows e sempre usarei qualquer coisa, desde que me atenda e me proporcione benefícios.
O que as pessoas (comuns), desejam, buscam, adquirem e compram são benefícios, não dificuldades e complicações.

Não sou da área de informática, nem programador e muito menos engenheiro de software e não pretendo ser.


9. Re: Como extrair o audio do video com qualidade?

Ricardo Groetaers
ricardogroetaers

(usa Linux Mint)

Enviado em 27/02/2021 - 03:18h

Minions escreveu:
2- Converter (Arquivo de Vídeo) para (Arquivo)MP3 com qualidade alta.

Sugestão, baseada nas instruções gentilmente fornecidas pelo Grinder no post nº 3:
ffmpeg -i 'ArquivoDeVideo.extensão' -acodec libmp3lame -b:a 320k -ac 2 -ar 48000 'Arquivo.mp3' 








Patrocínio

Site hospedado pelo provedor RedeHost.
Linux banner
Linux banner
Linux banner

Destaques

Artigos

Dicas

Tópicos

Top 10 do mês

Scripts